회원로그인

    기능 개선중
    기능 개선중
K-Movie

[한글] 장화, 홍련 A Tale of Two Sisters 2003 1080p Bluray x265 10Bit AAC 5.1…

Page

Name : 松本 Hit : 31 Comment : 0
Date18-01-10 00:56

File

Contents

  • File List ( 한국 [한글] 장화, 홍련 A Tale of Two Sisters 2003 1080p Bluray x265 10Bit AAC 5.1 - GetSchwifty.torrent )
  • A Tale of Two Sisters 2003 1080p Bluray x265 10Bit AAC 5.1 - GetSchwifty.mkv (3.9G)

sovoGgM.jpg

 

jKbyhkY.jpg

 

iJi55nB.jpg

 

IwMKDAJ.jpg

 

KLsdMRJ.jpg

 


Source File: A.Tale.of.Two.Sisters.2003.BluRay.1080p.DTS-HD.MA.5.1.AVC.REMUX-FraMeSToR  Media Information: Code: General Complete name : A Tale of Two Sisters 2003 1080p Bluray x265 10Bit AAC 5.1 - GetSchwifty.mkv Format : Matroska Format version : Version 4 / Version 2 File size : 3.90 GiB Duration : 1 h 54 min Overall bit rate : 4 880 kb/s Movie name : A Tale of Two Sisters Encoded date : UTC 2017-12-01 04:51:22 Video ID : 1 Format : HEVC Format/Info : High Efficiency Video Coding Format profile : Main [email protected]@Main Codec ID : V_MPEGH/ISO/HEVC Duration : 1 h 54 min Bit rate : 4 479 kb/s Width : 1 920 pixels Height : 1 080 pixels Display aspect ratio : 16:9 Frame rate mode : Constant Frame rate : 23.976 (24000/1001) FPS Color space : YUV Chroma subsampling : 4:2:0 Bit depth : 10 bits Bits/(Pixel*Frame) : 0.090 Stream size : 3.58 GiB (92%) Audio ID : 2 Format : AAC Format/Info : Advanced Audio Codec Format profile : LC Codec ID : A_AAC Duration : 1 h 54 min Bit rate : 384 kb/s Channel(s) : 6 channels Channel positions : Front: L C R, Side: L R, LFE Sampling rate : 48.0 kHz Frame rate : 46.875 FPS (1024 SPF) Compression mode : Lossy Delay relative to video : 9 ms Stream size : 316 MiB (8%) Title : Korean AAC VBR 5.1 Language : Korean Default : Yes Forced : No Text #1 ID : 3 Format : PGS Muxing mode : zlib Codec ID : S_HDMV/PGS Codec ID/Info : Picture based subtitle format used on BDs/HD-DVDs Duration : 1 h 49 min Bit rate : 10.5 kb/s Count of elements : 929 Stream size : 8.25 MiB (0%) Title : English Language : English Default : No Forced : No Text #2 ID : 4 Format : PGS Muxing mode : zlib Codec ID : S_HDMV/PGS Codec ID/Info : Picture based subtitle format used on BDs/HD-DVDs Duration : 1 h 47 min Bit rate : 8 446 b/s Count of elements : 925 Stream size : 6.52 MiB (0%) Title : Korean Language : Korean Default : No Forced : No Text #3 ID : 5 Format : PGS Muxing mode : zlib Codec ID : S_HDMV/PGS Codec ID/Info : Picture based subtitle format used on BDs/HD-DVDs Duration : 1 h 49 min Bit rate : 6 088 b/s Count of elements : 794 Stream size : 4.78 MiB (0%) Title : Japanese Language : Japanese Default : No Forced : No  인적이 드문 시골, 이름 모를 들꽃들이 소담하게 피어 있는 신작로 끝에 일본식 목재 가옥이 홀로 서 있다. 낮이면 피아노 소리가 들려 올 듯 아름다운 그 집은 그러나,어둠이 내리면 귀기 서린 음산함을 뿜기 시작한다. 예사롭지 않은 기운이 서려 있는 이 집에서 어른도 아이도 아닌 아름다운 두자매. 수미.수연이, 아름답지만 신경이 예민한 새엄마와 함께 살게 된 그날. 그 가족의 괴담이 시작된다.

[한글] 장화, 홍련 A Tale of Two Sisters 2003 1080p Bluray x265 10Bit AAC 5.1 - GetSchwifty
Like 0 Bad 0

댓글목록

등록된 댓글이 없습니다.

Total 5,878 ( 1 / 294 Page )
No Title View Size Date
5878 [한국] 강철비 _ 정우성, 곽도원 첨부파일 82 3.95G 01-17
5877 터널 2016 720/1080p BluRay x264 AC3 - nature boy 첨부파일 74 4.38G 01-10
5876 과거는 낯선 나라다 2007 DVD RIP 848x360 첨부파일 79 1.06G 01-10
5875 신세계 New.World.2013.1080p.BRRip.x264.Korean.AAC-ETRG 첨부파일 64 1.98G 01-10
5874 [한글] 조폭 마누라 3.My.Wife.Is.A.Gangster.3.2006.RE.720p.Bluray.x2… 첨부파일 57 6.11G 01-10
5873 조폭마누라2.My Wife Is Gangster2 2003.720P.H264.AAC-NON 첨부파일 45 3.73G 01-10
5872 달마야 놀자 Lets Play Dharma 2001 BluRay 720p x264 AAC-Shiniori 첨부파일 63 2.17G 01-10
5871 우묵배미의 사랑 A Short Love Affair 1990 BluRay 720p x264 AAC-Shini… 첨부파일 56 2.15G 01-10
5870 아랑 Arang 2006 BluRay 720p x264 AAC-Shiniori 첨부파일 23 1.51G 01-10
5869 별들의 고향 Heavenly Homecoming To Stars 1974 BluRay 720p x264 AA… 첨부파일 44 1.05G 01-10
5868 말아톤.Marathon.2005.H264.1080p-HDTV.EBS (incl. eng sub) 첨부파일 28 2.32G 01-10
5867 는 영화다 Rough.Cut.2008.1080p.BluRay.x264-GiMCHi 첨부파일 31 7.65G 01-10
5866 우묵배미의 사랑 A.Short.Love.Affair.1990.1080p.BluRay.x264-GiMCHi 첨부파일 31 7.94G 01-10
Reading [한글] 장화, 홍련 A Tale of Two Sisters 2003 1080p Bluray x265 10B… 첨부파일 32 3.9G 01-10
5864 범죄와의 : 나쁜놈들 전성시대 Nameless Gangster_ Rules of the Time (2012… 첨부파일 45 2.02G 01-10
5863 The Classic 2003 HDRip Film x264 720p-Ernie.mp4 첨부파일 35 2.48G 01-10
5862 쿼바디스 QUO.VADIS.2014.720p,NonDRM_[HD] 첨부파일 31 2.38G 01-10
5861 만신 Manshin.Ten.Thousand.Spirits.2013.720p.HDRip.H264-PRiDAiL… 첨부파일 28 3.17G 01-10
5860 너에게 나를 보낸다 To.You.From.Me.1994.QAM.XViD ESQUiRE 첨부파일 52 1.13G 01-10
5859 과거는 낯선 나라다 2007 DVD RIP 848x360 첨부파일 39 1.06G 01-09
Search